Haz clic para compartir en Twitter (Se abre en una ventana nueva)
Los Anarquistas BluRay MicroHD
Loading...
Loading...
Loading...

Alice S01e01-02 (2009), [BDrip 720p - H264 - Eng Aac Ac3 - Sub Ita Eng]

Seeders: n/a
Leechers: n/a
Completed: n/a

Age: 2 months    Visits: 56    Category: TV    Size: 4.0 GB

Posted by: Alice1337x    Comments: Read Comments

Info Hash: 667D7F0BD12735D213736E359C1A3CEB63086FB0



Now You Can Download Torrents From Kat.cr, Kickasstorrent Very Easily



Torrent Description



Alice S01e01-02 (2009)





Anno: 2009
Genere: fantascienza, fantastico

Cast:
Caterina Scorsone: Alice
Kathy Bates: Regina di Cuori
Andrew-Lee Potts: Cappellaio
Matt Frewer: Cavaliere Bianco
Harry Dean Stanton: Bruco
Colm Meaney: Re di Cuori
Tim Curry: Dodo
Philip Winchester: Jack Chase



Essendo stata abbandonata quand'era bambina da suo padre, Alice è abituata al fatto che gli uomini siano imprevedibili, ma Jack Chase è molto di più di questo. Dopo averla sorpresa con un raro anello di famiglia, all'improvviso viene catturato da due delinquenti e sparisce nel nulla. Alice s'imbatte poi in uno sconosciuto vestito in abiti stravaganti che corrisponde al nome di Bianconiglio, il quale promette di rivelare tutti i segreti di Jack. Alice lo segue attraverso l'enorme vetro di uno specchio e finisce nel Paese delle Meraviglie, una bizzarra città sotterranea di torri contorte e parapetti da sogno in stile orientale.




General
Complete name : D:\Alice\Alice.2009.BRrip.MP4.x264.720p-PT\Alice (HD).jpg
Format : JPEG
File size : 101 KiB

Image
Format : JPEG
Width : 640 pixels
Height : 800 pixels
Color space : YUV
Chroma subsampling : 4:2:0
Bit depth : 8 bits
Compression mode : Lossy
Stream size : 101 KiB (100%)

General
Complete name : D:\Alice\Alice.2009.BRrip.MP4.x264.720p-PT\Alice.(HD).en.srt
Format : SubRip
File size : 136 KiB

Text
Format : SubRip
Compression mode : Lossless

General
Complete name : D:\Alice\Alice.2009.BRrip.MP4.x264.720p-PT\Alice.(HD).it.srt
Format : SubRip
File size : 153 KiB

Text
Format : SubRip
Compression mode : Lossless

General
Complete name : D:\Alice\Alice.2009.BRrip.MP4.x264.720p-PT\Alice.(HD).m4v
Format : MPEG-4
Format profile : Sony PSP
Codec ID : MSNV (isom/iso2/avc1/MSNV)
File size : 4.00 GiB
Duration : 3 h 4 min
Overall bit rate mode : Variable
Overall bit rate : 3 104 kb/s
Movie name : Alice
Performer : poppedtart
Producer : poppedtart
Production studio : A poppedtart Production
Genre : Fantasy
ContentType : Short Film
Description : Everything you know will be turned on its head.
Recorded date : UTC 2009-12-07 00:00:00
Encoded date : UTC 1970-01-01 00:00:00
Tagged date : UTC 2010-03-06 11:27:24
Writing application : encode-handheld-5.3.pl / poppedtart
Copyright : © 2010 poppedtart. All Rights Reserved.
Cover : Yes
Comment : A poppedtart Production -
LongDescription : Everything you know will be turned on its head.
PurchaseDate : 2010-03-06T08:24:45Z
ContentRating : mpaa|PG|200|
HDVideo : Yes

Video
ID : 1
Format : AVC
Format/Info : Advanced Video Codec
Format profile : [email protected]
Format settings : 5 Ref Frames
Format settings, CABAC : No
Format settings, RefFrames : 5 frames
Codec ID : avc1
Codec ID/Info : Advanced Video Coding
Duration : 3 h 4 min
Bit rate : 2 555 kb/s
Width : 1 280 pixels
Height : 720 pixels
Display aspect ratio : 16:9
Frame rate mode : Constant
Frame rate : 23.976 (24000/1001) FPS
Color space : YUV
Chroma subsampling : 4:2:0
Bit depth : 8 bits
Scan type : Progressive
Bits/(Pixel*Frame) : 0.116
Stream size : 3.29 GiB (82%)
Writing library : x264 core 83 r1391 3d0f110
Encoding settings : cabac=0 / ref=5 / deblock=1:0:0 / analyse=0x3:0x133 / me=umh / subme=9 / psy=1 / psy_rd=1.0:0.0 / mixed_ref=1 / me_range=24 / chroma_me=1 / trellis=0 / 8x8dct=1 / cqm=0 / deadzone=21,11 / fast_pskip=1 / chroma_qp_offset=-2 / threads=12 / sliced_threads=0 / nr=0 / decimate=1 / mbaff=0 / constrained_intra=0 / bframes=3 / b_pyramid=0 / b_adapt=1 / b_bias=0 / direct=2 / wpredb=1 / wpredp=0 / keyint=250 / keyint_min=25 / scenecut=40 / intra_refresh=0 / rc_lookahead=40 / rc=2pass / mbtree=1 / bitrate=2555 / ratetol=1.6 / qcomp=0.60 / qpmin=10 / qpmax=51 / qpstep=4 / cplxblur=20.0 / qblur=0.5 / vbv_maxrate=10000 / vbv_bufsize=5000 / ip_ratio=1.41 / aq=1:1.00
Language : English
Encoded date : UTC 1970-01-01 00:00:00
Tagged date : UTC 1970-01-01 00:00:00

Audio #1
ID : 2
Format : AAC
Format/Info : Advanced Audio Codec
Format profile : LC
Codec ID : mp4a-40-2
Duration : 3 h 4 min
Bit rate mode : Variable
Bit rate : 160 kb/s
Maximum bit rate : 237 kb/s
Channel(s) : 2 channels
Channel positions : Front: L R
Sampling rate : 48.0 kHz
Frame rate : 46.875 FPS (1024 SPF)
Compression mode : Lossy
Stream size : 211 MiB (5%)
Title : Stereo
Language : English
Default : Yes
Alternate group : 1
Encoded date : UTC 1970-01-01 00:00:00
Tagged date : UTC 1970-01-01 00:00:00

Audio #2
ID : 3
Format : AC-3
Format/Info : Audio Coding 3
Format settings, Endianness : Big
Codec ID : ac-3
Duration : 3 h 4 min
Bit rate mode : Constant
Bit rate : 384 kb/s
Channel(s) : 6 channels
Channel positions : Front: L C R, Side: L R, LFE
Sampling rate : 48.0 kHz
Frame rate : 31.250 FPS (1536 SPF)
Bit depth : 16 bits
Compression mode : Lossy
Stream size : 507 MiB (12%)
Title : Dolby Digital
Language : English
Service kind : Complete Main
Default : No
Alternate group : 1
Encoded date : UTC 2010-03-06 11:27:07
Tagged date : UTC 2010-03-06 11:27:24





Grazie a ITASA per i sottotitoli


Consiglio di usare VLC Media Player per una corretta visione.
Per selezionare i sottotitoli, basta andare in "Sottotitolo" --> "Traccia dei sottitoli" e scegliere la traccia che vi interessa.






Recently Added Torrents in TV

Trackers List

tracker name
udp://tracker.opentrackr.org:1337/announce
udp://tracker.leechers-paradise.org:6969/announce
udp://tracker.pirateparty.gr:6969/announce
udp://tracker.coppersurfer.tk:6969/announce
udp://tracker.mg64.net:2710/announce
udp://tracker.zer0day.to:1337/announce

Sharing Widget


Download torrent
4.0 GB
Seeders: n/a
Leechers: n/a
Alice S01e01-02 (2009), [BDrip 720p - H264 - Eng Aac Ac3 - Sub Ita Eng]