Невинное проклятие / Кошмарики / Kodomo tsukai (2017) HDTVRip 720p | L2
Her Little Secret, His Hidden Heir
Loading...
Loading...
Loading...

Andremo in città (1966), [DTTRip - DivX - Ita Mp3] drammatico

Seeders: n/a
Leechers: n/a
Completed: n/a

Age: 2 months    Visits: 56    Category: Movies    Size: 790.9 MB

Posted by: Alice1337x    Comments: Read Comments

Info Hash: C791FEF62104ECC54DFA1E7CC770085295805C0C



Now You Can Download Torrents From Kat.cr, Kickasstorrent Very Easily



Torrent Description



Andremo in città (1966)





Titolo originale: Andremo in città
Nazionalità: Italia, Jugoslavia
Anno: 1966
Genere: drammatico
Regia: Nelo Risi

Cast:

Geraldine Chaplin: Lenka Vitas
Federico Scrobogna: Mischa Vitas
Aleksandar Gavric: Ratko Vitas
Nino Castelnuovo: Ivan
Stefania Careddu: Eva
Giovanni Ivan Scratuglia: Nico
Slavko Simi?: dottor Kolarov



Jugoslavia, seconda guerra mondiale, la giovane Lenka vive in un piccolo villaggio con il fratellino cieco Mischa, ella vive sola, a seguito della morte della madre e della scomparsa del padre Ratko, dopo che questi, un maestro elementare ebreo, è stato deportato dai nazisti. I due fratelli vivono aiutati da alcuni amici, tra i quali Ivan, un partigiano del quale Lenka si innamora.

Quando il padre, ufficialmente dato per morto, ricompare, Lenka lo accudisce nascondendolo nella soffitta, sostenendo contemporaneamente Mischa, continuando a descrivergli la realtà che non può vedere e promettendogli una nuova vita in "città" ed un'operazione che dovrebbe dargli la vista ma, all'arrivo delle SS, Ratko si sacrifica per non rivelare la presenza di Ivan che giace ferito ed altrettanto farà Lenka, che si incammina verso il treno diretto al campo di sterminio.

Durante il viaggio la giovane, abbracciando il fratellino, gli descrive uno scenario inesistente, con l'approssimarsi della "città" e la prospettiva dell'operazione con la quale "potrà vedere tutto".





General
Complete name : D:\Incoming\1966 - Nelo Risi - Andremo in città.avi
Format : AVI
Format/Info : Audio Video Interleave
File size : 791 MiB
Duration : 1 h 37 min
Overall bit rate : 1 131 kb/s
Writing library : VirtualDub build 24442/release

Video
ID : 0
Format : MPEG-4 Visual
Codec ID : DIV3
Codec ID/Hint : DivX 3 Low
Duration : 1 h 37 min
Bit rate : 929 kb/s
Width : 640 pixels
Height : 480 pixels
Display aspect ratio : 4:3
Frame rate : 25.000 FPS
Color space : YUV
Chroma subsampling : 4:2:0
Bit depth : 8 bits
Compression mode : Lossy
Bits/(Pixel*Frame) : 0.121
Stream size : 650 MiB (82%)

Audio
ID : 1
Format : MPEG Audio
Format version : Version 1
Format profile : Layer 3
Mode : Joint stereo
Mode extension : MS Stereo
Codec ID : 55
Codec ID/Hint : MP3
Duration : 1 h 37 min
Bit rate mode : Constant
Bit rate : 192 kb/s
Channel(s) : 2 channels
Sampling rate : 48.0 kHz
Compression mode : Lossy
Stream size : 134 MiB (17%)
Alignment : Split accross interleaves
Interleave, duration : 40 ms (1.00 video frame)
Interleave, preload duration : 500 ms







Grazie a belgarath per i bannerini con le rose






Recently Added Torrents in Movies

Trackers List

tracker name
udp://tracker.opentrackr.org:1337/announce
udp://tracker.leechers-paradise.org:6969/announce
udp://tracker.pirateparty.gr:6969/announce
udp://tracker.coppersurfer.tk:6969/announce
udp://tracker.mg64.net:2710/announce
udp://tracker.zer0day.to:1337/announce

Sharing Widget


Download torrent
790.9 MB
Seeders: n/a
Leechers: n/a
Andremo in città (1966), [DTTRip - DivX - Ita Mp3] drammatico