Asterix 02
MX Player Pro 1.9.19 (No ADS + AC3DTS) Patched Apk
Loading...
Loading...
Loading...

Artisti Vari - Beverly Hills Cop Trilogy OST (1984-1994) [Mp3 320 Kbps] Soundtrack (OST)

Seeders: 12
Leechers: 1
Completed: 230

Age: 1 week    Visits: 41    Category: Music    Size: 289.4 MB

Posted by: Alice1337x    Comments: Read Comments

Info Hash: 9B03B9AD2F9CCA09EA8E0092BE000351B4DAFB26



Now You Can Download Torrents From Kat.cr, Kickasstorrent Very Easily



Torrent Description



Artisti Vari - Beverly Hills Cop OST (1984)



.: Dati Album :.

Anno: 1984

.: Tracklist :.

Patti LaBelle - New Attitude 4:37
Shalamar - Don't Get Stopped In Beverly Hills 4:17
Junior (2) - Do You Really (Want My Love?) 3:42
Rockie Robbins - Emergency 3:29
Pointer Sisters - Neutron Dance 4:13
Glenn Frey - The Heat Is On 3:45
Danny Elfman - Gratitude 5:04
Patti LaBelle - Stir It Up 3:35
The System - Rock 'N Roll Me Again 3:14
Harold Faltermeyer - Axel F 3:00

.: Dati Tecnici :.

General
Complete name : D:\Downloads\Beverly Hills Cop Trilogy (Soundtrack)\Beverly Hills Cop\01. Patti LaBelle - New attitude.mp3
Format : MPEG Audio
File size : 10.7 MiB
Duration : 4 min 39 s
Overall bit rate mode : Constant
Overall bit rate : 320 kb/s
Album : Beverly Hills Cop I.
Track name : New attitude
Track name/Position : 1
Track name/Total : 10
Performer : Patti LaBelle
Genre : Soundtrack
Recorded date : 1984
Writing library : LAME3.93
Comment : 8E09370A

Audio
Format : MPEG Audio
Format version : Version 1
Format profile : Layer 3
Duration : 4 min 39 s
Bit rate mode : Constant
Bit rate : 320 kb/s
Channel(s) : 2 channels
Sampling rate : 44.1 kHz
Frame rate : 38.281 FPS (1152 SPF)
Compression mode : Lossy
Stream size : 10.7 MiB (100%)
Writing library : LAME3.93

Artisti Vari - Beverly Hills Cop II OST (1987)



.: Dati Album :.

Anno: 1987

.: Tracklist :.

Bob Seger - Shakedown 4:01
Pointer Sisters - Be There 4:14
Charlie Sexton - In Deep 3:32
Corey Hart - Hold On 3:43
George Michael - I Want Your Sex 4:44
James Ingram - Better Way 4:09
Pebbles - Love/Hate 3:59
The Jets - Cross My Broken Heart 4:05
Ready For The World - 36 Lovers 4:16
Sue Ann - I Can't Stand It 4:04
Jermaine Jackson - All Revved Up 4:00

.: Dati Tecnici :.

General
Complete name : D:\Downloads\Beverly Hills Cop Trilogy (Soundtrack)\Beverly Hills Cop II\01 - Shakedown.mp3
Format : MPEG Audio
File size : 9.28 MiB
Duration : 4 min 3 s
Overall bit rate mode : Constant
Overall bit rate : 320 kb/s
Album : Beverly Hills Cop II
Track name : Shakedown
Track name/Position : 01
Performer : Bob Seger
Genre : Soundtrack
Recorded date : 1987

Audio
Format : MPEG Audio
Format version : Version 1
Format profile : Layer 3
Format settings : Joint stereo
Duration : 4 min 3 s
Bit rate mode : Constant
Bit rate : 320 kb/s
Channel(s) : 2 channels
Sampling rate : 44.1 kHz
Frame rate : 38.281 FPS (1152 SPF)
Compression mode : Lossy
Stream size : 9.27 MiB (100%)

Artisti Vari - Beverly Hills Cop OST III (1994)



.: Dati Album :.

Anno: 1994

.: Tracklist :.

INXS - Keep The Peace 4:29
Terence Trent D'Arby - Right Thing, Wrong Way 5:13
Inner Circle - Summer Jamming 4:03
Eazy-E - Luv 4 Dem Gangsta'z 4:33
Tony Toni Toné - Leavin' 4:04
Shai (3) - The Place Where You Belong 4:22
Chanté Moore - Mood 4:10
Patti LaBelle - The Right Kinda Lover 4:53
Nile Rodgers Feat. Richard Hilton - Axel F 2:57
The Supremes - Come See About Me 2:37

.: Dati Tecnici :.

General
Complete name : D:\Downloads\Beverly Hills Cop Trilogy (Soundtrack)\Beverly Hills Cop III\01 - The Place Where You Belong.mp3
Format : MPEG Audio
File size : 10.0 MiB
Duration : 4 min 22 s
Overall bit rate mode : Constant
Overall bit rate : 320 kb/s
Album : Beverly Hills Cop III
Track name : The Place Where You Belong
Track name/Position : 01
Performer : Shai
Genre : Soundtrack
Recorded date : 1994

Audio
Format : MPEG Audio
Format version : Version 1
Format profile : Layer 3
Format settings : Joint stereo
Duration : 4 min 22 s
Bit rate mode : Constant
Bit rate : 320 kb/s
Channel(s) : 2 channels
Sampling rate : 44.1 kHz
Frame rate : 38.281 FPS (1152 SPF)
Compression mode : Lossy
Stream size : 10.0 MiB (100%)

Grazie a chi ha condiviso in rete questa colonna sonora





Recently Added Torrents in Music

Trackers List

tracker name
udp://tracker.opentrackr.org:1337/announce
udp://tracker.leechers-paradise.org:6969/announce
udp://tracker.pirateparty.gr:6969/announce
udp://tracker.coppersurfer.tk:6969/announce
udp://tracker.mg64.net:2710/announce
udp://tracker.zer0day.to:1337/announce

Sharing Widget


Download torrent
289.4 MB
Seeders: 12
Leechers: 1
Artisti Vari - Beverly Hills Cop Trilogy OST (1984-1994) [Mp3 320 Kbps] Soundtrack (OST)