LEGO Ninjago
Stranger Things
Loading...
Loading...
Loading...
Loading...

Hours (2013), [BDmux 1080p - H264 - Ita Eng Ac3 5 1 Eng Dts 5 1 - Sub Ita] by TRL - thriller

Seeders: 1
Leechers: 1
Completed: 188

Age: 2 months    Visits: 59    Category: Movies    Size: 6.4 GB

Posted by: Alice1337x    Comments: Read Comments

Info Hash: 7733A4FBAEDC97EFA40714B89CA8D77D0BBC20CA



Now You Can Download Torrents From Kat.cr, Kickasstorrent Very Easily



Torrent Description



Hours (2013)



Titolo originale: Hours
Nazionalità: Stati Uniti d'America
Anno: 2013
Genere: thriller
Regia: Eric Heisserer

Cast
Paul Walker: Nolan
Génesis Rodríguez: Abigail
Nick Gomez: Lobo
Christopher Matthew Cook: Lenny
Judd Lormand: Glenn
Renell Gibbs: Carl
Lena Clark: Lucy
TJ Hassan: Jeremy
Oscar Gale: Hector
Tony Bentley: dottore
Kerry Cahill: infermiera Shelly
Michelle Torres: vittima dell'uragano Katrina

Poco prima dell'alba del 29 agosto 2005, Nolan e sua moglie incinta Abigail raggiungono l'ospedale di New Orleans, per far nascere la loro figlia prematura. Quello che dovrebbe essere il giorno più bello della loro vita cambia però in modo tragico: l'uragano Katrina distrugge l'ospedale dove si trovano, che deve quindi essere immediatamente evacuato. Nolan è rimasto da solo con la figlia appena nata(poiché la moglie ha perso la vita durante il parto)la quale è costretta a vivere grazie ad un respiratore per le successive 48 ore prima di iniziare a respirare da sè.Nolan si trova improvvisamente tagliato fuori dal mondo,da solo,a fare i conti con la fame,a fare ricorso di droghe per sopravvivere,con continui sbalzi di corrente e con l'inondazione in aumento,ma cercherà comunque in tutti i modi di salvare lui e sua figlia.






General
Unique ID : 238290869526295699815949275859606329446 (0xB34526F0A58ADF61A937E3EEA2EC5866)
Complete name : D:\Downloads\Hours.2013.iTA-ENG.Bluray.1080p.x264-TRL.mkv
Format : Matroska
Format version : Version 2
File size : 6.44 GiB
Duration : 1 h 37 min
Overall bit rate : 9 479 kb/s
Encoded date : UTC 2015-09-04 13:49:58
Writing application : mkvmerge v7.1.0 ('Good Love') 32bit built on Jul 27 2014 12:59:18
Writing library : libebml v1.3.0 + libmatroska v1.4.1
Attachments : F1_T2_Video - .rar

Video
ID : 1
Format : AVC
Format/Info : Advanced Video Codec
Format profile : [email protected]
Format settings, CABAC : Yes
Format settings, RefFrames : 5 frames
Codec ID : V_MPEG4/ISO/AVC
Duration : 1 h 37 min
Bit rate : 6 757 kb/s
Width : 1 920 pixels
Height : 804 pixels
Display aspect ratio : 2.40:1
Frame rate mode : Constant
Frame rate : 23.976 (24000/1001) FPS
Original frame rate : 25.000 FPS
Color space : YUV
Chroma subsampling : 4:2:0
Bit depth : 8 bits
Scan type : Progressive
Bits/(Pixel*Frame) : 0.183
Stream size : 4.59 GiB (71%)
Title : SOURCE FRENCH BD
Writing library : x264 core 146 r2538 121396c
Language : English
Default : Yes
Forced : No

Audio #1
ID : 2
Format : AC-3
Format/Info : Audio Coding 3
Format settings, Endianness : Big
Codec ID : A_AC3
Duration : 1 h 37 min
Bit rate mode : Constant
Bit rate : 384 kb/s
Channel(s) : 6 channels
Channel positions : Front: L C R, Side: L R, LFE
Sampling rate : 48.0 kHz
Frame rate : 31.250 FPS (1536 SPF)
Bit depth : 16 bits
Compression mode : Lossy
Stream size : 267 MiB (4%)
Title : iTuens RESYNC
Language : Italian
Service kind : Complete Main
Default : Yes
Forced : No

Audio #2
ID : 3
Format : AC-3
Format/Info : Audio Coding 3
Format settings, Endianness : Big
Codec ID : A_AC3
Duration : 1 h 37 min
Bit rate mode : Constant
Bit rate : 640 kb/s
Channel(s) : 6 channels
Channel positions : Front: L C R, Side: L R, LFE
Sampling rate : 48.0 kHz
Frame rate : 31.250 FPS (1536 SPF)
Bit depth : 16 bits
Compression mode : Lossy
Stream size : 446 MiB (7%)
Language : English
Service kind : Complete Main
Default : No
Forced : No

Audio #3
ID : 4
Format : DTS
Format/Info : Digital Theater Systems
Mode : 16
Format settings, Endianness : Big
Codec ID : A_DTS
Duration : 1 h 37 min
Bit rate mode : Constant
Bit rate : 1 509 kb/s
Channel(s) : 6 channels
Channel positions : Front: L C R, Side: L R, LFE
Sampling rate : 48.0 kHz
Frame rate : 93.750 FPS (512 SPF)
Bit depth : 24 bits
Compression mode : Lossy
Stream size : 1.03 GiB (16%)
Language : English
Default : No
Forced : No

Text #1
ID : 5
Format : UTF-8
Codec ID : S_TEXT/UTF8
Codec ID/Info : UTF-8 Plain Text
Title : FORCED
Language : Italian
Default : Yes
Forced : No

Text #2
ID : 6
Format : UTF-8
Codec ID : S_TEXT/UTF8
Codec ID/Info : UTF-8 Plain Text
Language : Italian
Default : No
Forced : No

Menu
00:00:00.000 : en:00:00:00.000
00:04:29.852 : en:00:04:29.852
00:15:11.493 : en:00:15:11.493
00:27:51.753 : en:00:27:51.753
00:38:19.880 : en:00:38:19.880
00:43:49.209 : en:00:43:49.209
00:54:28.348 : en:00:54:28.348
00:59:14.634 : en:00:59:14.634
01:07:46.645 : en:01:07:46.645
01:20:16.394 : en:01:20:16.394
01:28:14.372 : en:01:28:14.372
01:32:53.150 : en:01:32:53.150









Recently Added Torrents in Movies

Trackers List

tracker name
udp://tracker.opentrackr.org:1337/announce
udp://tracker.leechers-paradise.org:6969/announce
udp://tracker.pirateparty.gr:6969/announce
udp://tracker.coppersurfer.tk:6969/announce
udp://tracker.mg64.net:2710/announce
udp://tracker.zer0day.to:1337/announce

Sharing Widget


Download torrent
6.4 GB
Seeders: 1
Leechers: 1
Hours (2013), [BDmux 1080p - H264 - Ita Eng Ac3 5 1 Eng Dts 5 1 - Sub Ita] by TRL - thriller