Itazura Majo to Nemuranai Machi
Filmai-Ru
Loading...
Loading...
Loading...
Loading...

I fiori della guerra (2011), [BDrip 1080p - H264 - Ita Eng Dts Ac3 5 1 - Sub Ita] by BLUWORLD drammatico, storico

Seeders: 3
Leechers: 2
Completed: 18

Age: 2 months    Visits: 65    Category: Movies    Size: 15.4 GB

Posted by: Alice1337x    Comments: Read Comments

Info Hash: A604790996F9F807BA2CE16BB9E4EAB79FC929CB



Now You Can Download Torrents From Kat.cr, Kickasstorrent Very Easily



Torrent Description



I fiori della guerra (2011)



Titolo originale: Jin líng shí san chai
Nazionalità: Cina
Anno: 2011
Genere: drammatico, storico
Regia: Zh?ng Yìmóu

Cast:

Christian Bale: John Miller
Ni Ni: Yu Mo
Zhang Xinyi: Shu
Tong Dawei: Maggiore Li
Atsuro Watabe: Colonnello Hasegawa
Cao Kefan: Mr. Meng
Huang Tianyuan: George Chen
Zhang Doudou: Ling
Sun Jia: Hua
Shigeo Kobayashi: Tenente Kato
Han Xiting: Yi
Yuan Yangchunzi: Mosquito
Bai Xue: Lan
Li Yuemin: Dou
Takashi Yamanaka: Tenente Asakura
Paul Schneider: Terry

1937, l'esercito giapponese inizia l'invasione della Cina, a dicembre viene occupata la capitale repubblicana Nanchino. Durante i combattimenti, per sfuggire al massacro 14 allieve cinesi dodicenni di una scuola cattolica si rifugiano nel collegio dove studiano. Uno sparuto gruppo di soldati cinesi si sacrifica per difenderle, rimane in vita solo il comandante maggiore Li e un giovanissimo soldato ferito a morte.

Al convento arriva anche il becchino John Miller per dare sepoltura al sacerdote padre Engelmann, direttore del collegio. Con suo grande piacere, quasi contemporaneamente giunge anche un gruppo di prostitute invitate dal cuoco, che nel frattempo si è dileguato. Tra le ragazze e le donne iniziano subito dissidi e contrasti, ma una pattuglia giapponese assalta la chiesa. Le prostitute riescono a rifugiarsi in cantina, le ragazzine sono catturate dai soldati che vogliono violentarle. John Miller, che la sera precedente si è ubriacato e travestito da sacerdote, interviene istintivamente per difenderle, ma viene percosso e ferito. Soltanto l'intervento del maggiore Li salva la situazione: i giapponesi lo inseguono all'esterno, dove l'ufficiale ha predisposto una trappola esplosiva e con il proprio sacrificio stermina il nemico.

Subito dopo l'episodio, al collegio arriva il colonnello Hasegawa delle forze d'invasione, che oltre a chiedere scusa per il comportamento ingiustificabile dei suoi commilitoni si dichiara un appassionato di musica; esprime il desiderio di sentir cantare entro qualche giorno le ragazzine. Nel frattempo mette soldati di guardia al convento in modo che nessuno possa entrare, ma neppure uscire. Hasegawa è accompagnato da un interprete cinese, il signor Meng, che è il padre dell'allieva Shu, accusata per questo dalle altre di essere una collaborazionista.

Shu, che ha preso una cotta per John Miller, è anche gelosa di Yu Mo, la più bella tra le giovani prostitute. La tensione tra queste e le educande aumenta, finché due ragazze di piacere escono nottetempo per tornare al bordello: vogliono trovare corde per il pipa, lo strumento musicale con il quale cercano di distrarre l'agonia del giovanissimo soldato che il maggiore Li ha lasciato alle loro cure. Miller esce per rintracciarle ma arriva troppo tardi, le due sono state violentate e trucidate dagli invasori.

Il colonnello Hasegawa torna al convento per ascoltare il coro delle educande, poi consegna l'ordine di presentarsi a cantare alla festa organizzata dal comando giapponese per l'occupazione della capitale. John Miller, entrato completamente nella parte del sacerdote, cerca di declinare l'invito perché teme per il destino delle ragazzine, ma l'ufficiale ribadisce che non può disobbedire a un ordine. Tornerà entro qualche giorno per prelevarle.

L'incertezza sul corretto comportamento dei giapponesi è molto forte, c'è seriamente da temere per l'incolumità delle educande. Subodorando cosa le aspetta, le ragazzine si accordano per gettarsi dalla torre del convento e sottrarsi alla sorte; Miller riesce a fermarle solo perché Yu Mo, presa a compassione, promette che lei e le sue colleghe si sostituiranno alle allieve.

John Miller, che si è innamorato di Yu Mo, accetta di assecondare la sostituzione solo per il ricordo della figlia, che se non fosse morta da bambina avrebbe l'età delle educande. Si procura tramite il signor Meng quanto occorre per rimettere in funzione il vecchio autocarro del collegio, poi taglia i capelli delle prostitute in modo che sembrino più giovani. Purtroppo le sostitute sono soltanto 12 e le allieve 13, solo il sacrificio di George, l'orfano coetaneo delle ragazzine che padre Engelmann ha accolto in convento, permette di mantenere la finzione. L'adolescente indossa la divisa del collegio e una parrucca.

Il giorno in cui i giapponesi vengono a prendere le educande, nessun soldato si accorge della sostituzione perché le prostitute hanno davvero l'aria di ragazzine spaventate. Il signor Meng viene trucidato senza pietà da un ufficiale, e John Miller può rivelare a Shu che suo padre è un eroe e non un traditore, dal momento che ha procurato un lasciapassare per uscire da Nanchino. L'ex becchino nasconde le ragazzine in un sottofondo sul retro dell'autocarro riparato, e riesce a abbandonare la capitale portandole in salvo.

Dell'orfano George, di Yu Mo e delle altre prostitute non si avranno più notizie; finiranno ingoiate dalla guerra nello spaventoso bilancio del massacro di Nanchino.







General
Unique ID : 229029815762236998489046364826061046743 (0xAC4D89BC8E8A45FCA72DCDABA93503D7)
Complete name : D:\Downloads\I.Fiori.Della.Guerra-The.Flowers.Of.War.2011.DTS.ITA.ENG.1080p.BluRay.x264-BLUWORLD.mkv
Format : Matroska
Format version : Version 4 / Version 2
File size : 15.4 GiB
Duration : 2 h 22 min
Overall bit rate mode : Variable
Overall bit rate : 15.5 Mb/s
Encoded date : UTC 2014-01-18 11:45:37
Writing application : mkvmerge v6.7.0 ('Back to the Ground') 32bit built on Jan 8 2014 15:03:17
Writing library : libebml v1.3.0 + libmatroska v1.4.1

Video
ID : 1
Format : AVC
Format/Info : Advanced Video Codec
Format profile : [email protected]
Format settings : CABAC / 5 Ref Frames
Format settings, CABAC : Yes
Format settings, RefFrames : 5 frames
Codec ID : V_MPEG4/ISO/AVC
Duration : 2 h 22 min
Bit rate mode : Variable
Bit rate : 11.2 Mb/s
Maximum bit rate : 62.5 Mb/s
Width : 1 920 pixels
Height : 800 pixels
Display aspect ratio : 2.40:1
Frame rate mode : Constant
Frame rate : 23.976 (24000/1001) FPS
Color space : YUV
Chroma subsampling : 4:2:0
Bit depth : 8 bits
Scan type : Progressive
Bits/(Pixel*Frame) : 0.304
Stream size : 10.8 GiB (70%)
Writing library : x264 core 140 r2377 1ca7bb9
Default : Yes
Forced : No

Audio #1
ID : 2
Format : DTS
Format/Info : Digital Theater Systems
Mode : 16
Format settings, Endianness : Big
Codec ID : A_DTS
Duration : 2 h 22 min
Bit rate mode : Constant
Bit rate : 1 509 kb/s
Channel(s) : 6 channels
Channel positions : Front: L C R, Side: L R, LFE
Sampling rate : 48.0 kHz
Frame rate : 93.750 FPS (512 SPF)
Bit depth : 16 bits
Compression mode : Lossy
Stream size : 1.50 GiB (10%)
Title : Ita. DTS 1510 Kbps
Language : Italian
Default : Yes
Forced : No

Audio #2
ID : 3
Format : AC-3
Format/Info : Audio Coding 3
Format settings, Endianness : Big
Codec ID : A_AC3
Duration : 2 h 22 min
Bit rate mode : Constant
Bit rate : 640 kb/s
Channel(s) : 6 channels
Channel positions : Front: L C R, Side: L R, LFE
Sampling rate : 48.0 kHz
Frame rate : 31.250 FPS (1536 SPF)
Bit depth : 16 bits
Compression mode : Lossy
Stream size : 651 MiB (4%)
Title : Ita. AC3 640 Kbps
Language : Italian
Service kind : Complete Main
Default : No
Forced : No

Audio #3
ID : 4
Format : DTS
Format/Info : Digital Theater Systems
Mode : 16
Format settings, Endianness : Big
Codec ID : A_DTS
Duration : 2 h 22 min
Bit rate mode : Constant
Bit rate : 1 509 kb/s
Channel(s) : 6 channels
Channel positions : Front: L C R, Side: L R, LFE
Sampling rate : 48.0 kHz
Frame rate : 93.750 FPS (512 SPF)
Bit depth : 16 bits
Compression mode : Lossy
Stream size : 1.50 GiB (10%)
Title : Eng. DTS 1510 Kbps
Language : English
Default : No
Forced : No

Audio #4
ID : 5
Format : AC-3
Format/Info : Audio Coding 3
Format settings, Endianness : Big
Codec ID : A_AC3
Duration : 2 h 22 min
Bit rate mode : Constant
Bit rate : 640 kb/s
Channel(s) : 6 channels
Channel positions : Front: L C R, Side: L R, LFE
Sampling rate : 48.0 kHz
Frame rate : 31.250 FPS (1536 SPF)
Bit depth : 16 bits
Compression mode : Lossy
Stream size : 651 MiB (4%)
Title : Eng. AC3 640 Kbps
Language : English
Service kind : Complete Main
Default : No
Forced : No

Text #1
ID : 6
Format : UTF-8
Codec ID : S_TEXT/UTF8
Codec ID/Info : UTF-8 Plain Text
Title : Sub. Ita. Forced
Language : Italian
Default : Yes
Forced : Yes

Text #2
ID : 7
Format : UTF-8
Codec ID : S_TEXT/UTF8
Codec ID/Info : UTF-8 Plain Text
Title : Sub. Ita.
Language : Italian
Default : No
Forced : No

Menu
00:00:00.000 : en:(01)00:00:00:000
00:08:47.652 : en:(02)00:08:47:652
00:12:56.442 : en:(03)00:12:56:442
00:18:15.636 : en:(04)00:18:15:636
00:27:59.803 : en:(05)00:27:59:803
00:35:57.947 : en:(06)00:35:57:947
00:41:53.427 : en:(07)00:41:53:427
00:47:08.325 : en:(08)00:47:08:325
00:51:38.637 : en:(09)00:51:38:637
00:59:35.405 : en:(10)00:59:35:405
01:02:57.106 : en:(11)01:02:57:106
01:12:06.947 : en:(12)01:12:06:947
01:26:03.533 : en:(13)01:26:03:533
01:36:03.924 : en:(14)01:36:03:924
01:45:47.257 : en:(15)01:45:47:257
01:55:44.854 : en:(16)01:55:44:854
02:05:38.697 : en:(17)02:05:38:697
02:10:40.207 : en:(18)02:10:40:207











Recently Added Torrents in Movies

Trackers List

tracker name
udp://tracker.opentrackr.org:1337/announce
udp://tracker.leechers-paradise.org:6969/announce
udp://tracker.pirateparty.gr:6969/announce
udp://tracker.coppersurfer.tk:6969/announce
udp://tracker.mg64.net:2710/announce
udp://tracker.zer0day.to:1337/announce

Sharing Widget


Download torrent
15.4 GB
Seeders: 3
Leechers: 2
I fiori della guerra (2011), [BDrip 1080p - H264 - Ita Eng Dts Ac3 5 1 - Sub Ita] by BLUWORLD drammatico, storico