Veteran Guy
Read More
Loading...
Loading...
Loading...
Loading...

Il cammino per Santiago (2010), [BDrip 1080p - H264 - Ita Eng Dts Ac3 5 1 - Sub NUIta]Drammatico by BLUWORLD

Seeders: 3
Leechers: 1
Completed: 16

Age: 2 months    Visits: 53    Category: Movies    Size: 18.9 GB

Posted by: Alice1337x    Comments: Read Comments

Info Hash: 4AE7718773BA099AB1A8A3172E16F4D5C24F1A94



Now You Can Download Torrents From Kat.cr, Kickasstorrent Very Easily



Torrent Description



Il cammino per Santiago (2010)



Titolo originale: The Way
Nazionalità: USA, Spagna
Anno: 2010
Genere: drammatico
Regia: Emilio Estevez

Cast
Martin Sheen: Tom Avery
Emilio Estevez: Daniel Avery
Deborah Kara Unger: Sarah
Yorick van Wageningen: Joost
James Nesbitt: Jack
Tchéky Karyo: Capitano Henri
Ángela Molina: Angelica
Carlos Leal: Jean
Simón Andreu: Don Santiago
Eusebio Lázaro: El Ramón
Antonio Gil: Ishmael
Spencer Garrett: Phil
Matt Clark: Padre Frank

Thomas Avery è uno oftalmologo statunitense che si reca in Francia in seguito alla morte del figlio Daniel, deceduto sui Pirenei durante una tormenta mentre stava percorrendo il cammino di Santiago, via di pellegrinaggio verso la Cattedrale di Santiago di Compostela in Galizia, Spagna. L'idea iniziale di Tom è quella di riportare in patria le ceneri del figlio, ma poi decide di portarle con sé (in una scatola metallica) e di intraprendere a sua volta il cammino, proseguendo il pellegrinaggio iniziato dal figlio: la sua intenzione diventa quindi quella di consentire al figlio di realizzare, in qualche modo, il suo desiderio di raggiungere Santiago.

Durante il lungo viaggio a piedi per 800 chilometri attraverso i Pirenei, Tom incontra altri pellegrini da tutto il mondo, e in particolare stringe amicizia con tre di loro: Joost, da Amsterdam (che ha deciso di intraprendere il cammino per cercare di perdere peso), Sarah, dal Canada (che afferma di voler smettere di fumare, ma in realtà vede nel cammino la spinta emotiva per superare un aborto, compiuto a causa del marito che la maltrattava) e Jack, dall'Irlanda (uno scrittore in cerca di ispirazione, che scriverà un libro in cui racconterà le storie dei compagni).

Al termine del viaggio Tom riesce a capire che cosa significhi essere un cittadino del mondo e scopre la differenza fra "la vita che viviamo e quella che scegliamo di vivere".







General
Unique ID : 241408788783638112125153225098745779278 (0xB59DA43A5EE640158B76B742553E944E)
Complete name : D:\Downloads\Il.Cammino.Per.Santiago-The.Way.2010.DTS.ITA.ENG.1080p.BluRay.x264-BLUWORLD.mkv
Format : Matroska
Format version : Version 2
File size : 18.9 GiB
Duration : 2 h 9 min
Overall bit rate : 21.0 Mb/s
Encoded date : UTC 2012-10-30 14:17:52
Writing application : mkvmerge v5.8.0 ('No Sleep / Pillow') built on Sep 2 2012 15:37:04
Writing library : libebml v1.2.3 + libmatroska v1.3.0

Video
ID : 1
Format : AVC
Format/Info : Advanced Video Codec
Format profile : [email protected]
Format settings, CABAC : Yes
Format settings, RefFrames : 5 frames
Muxing mode : Header stripping
Codec ID : V_MPEG4/ISO/AVC
Duration : 2 h 9 min
Bit rate : 17.0 Mb/s
Width : 1 920 pixels
Height : 1 040 pixels
Display aspect ratio : 1.85:1
Frame rate mode : Constant
Frame rate : 24.000 FPS
Color space : YUV
Chroma subsampling : 4:2:0
Bit depth : 8 bits
Scan type : Progressive
Bits/(Pixel*Frame) : 0.355
Stream size : 14.7 GiB (78%)
Writing library : x264 core 120
Default : Yes
Forced : No
Color range : Limited
Color primaries : BT.709
Transfer characteristics : BT.709
Matrix coefficients : BT.709

Audio #1
ID : 2
Format : DTS
Format/Info : Digital Theater Systems
Mode : 16
Format settings, Endianness : Big
Muxing mode : Header stripping
Codec ID : A_DTS
Duration : 2 h 9 min
Bit rate mode : Constant
Bit rate : 1 509 kb/s
Channel(s) : 6 channels
Channel positions : Front: L C R, Side: L R, LFE
Sampling rate : 48.0 kHz
Frame rate : 93.750 FPS (512 SPF)
Bit depth : 24 bits
Compression mode : Lossy
Delay relative to video : 10 ms
Stream size : 1.36 GiB (7%)
Title : Ita. DTS 1510 Kbps
Language : Italian
Default : Yes
Forced : No

Audio #2
ID : 3
Format : AC-3
Format/Info : Audio Coding 3
Format settings, Endianness : Big
Muxing mode : Header stripping
Codec ID : A_AC3
Duration : 2 h 9 min
Bit rate mode : Constant
Bit rate : 640 kb/s
Channel(s) : 6 channels
Channel positions : Front: L C R, Side: L R, LFE
Sampling rate : 48.0 kHz
Frame rate : 31.250 FPS (1536 SPF)
Bit depth : 16 bits
Compression mode : Lossy
Stream size : 592 MiB (3%)
Title : Ita. AC3 640 Kbps
Language : Italian
Service kind : Complete Main
Default : No
Forced : No

Audio #3
ID : 4
Format : DTS
Format/Info : Digital Theater Systems
Mode : 16
Format settings, Endianness : Big
Muxing mode : Header stripping
Codec ID : A_DTS
Duration : 2 h 9 min
Bit rate mode : Constant
Bit rate : 1 509 kb/s
Channel(s) : 6 channels
Channel positions : Front: L C R, Side: L R, LFE
Sampling rate : 48.0 kHz
Frame rate : 93.750 FPS (512 SPF)
Bit depth : 24 bits
Compression mode : Lossy
Delay relative to video : 10 ms
Stream size : 1.36 GiB (7%)
Title : Eng. DTS 1510 Kbps
Language : English
Default : No
Forced : No

Audio #4
ID : 5
Format : AC-3
Format/Info : Audio Coding 3
Format settings, Endianness : Big
Muxing mode : Header stripping
Codec ID : A_AC3
Duration : 2 h 9 min
Bit rate mode : Constant
Bit rate : 640 kb/s
Channel(s) : 6 channels
Channel positions : Front: L C R, Side: L R, LFE
Sampling rate : 48.0 kHz
Frame rate : 31.250 FPS (1536 SPF)
Bit depth : 16 bits
Compression mode : Lossy
Stream size : 592 MiB (3%)
Title : Eng. AC3 640 Kbps
Language : English
Service kind : Complete Main
Default : No
Forced : No

Text
ID : 6
Format : UTF-8
Codec ID : S_TEXT/UTF8
Codec ID/Info : UTF-8 Plain Text
Title : Sub. Ita. Non Udenti
Language : Italian
Default : No
Forced : No









Recently Added Torrents in Movies

Trackers List

tracker name
udp://tracker.opentrackr.org:1337/announce
udp://tracker.leechers-paradise.org:6969/announce
udp://tracker.pirateparty.gr:6969/announce
udp://tracker.coppersurfer.tk:6969/announce
udp://tracker.mg64.net:2710/announce
udp://tracker.zer0day.to:1337/announce

Sharing Widget


Download torrent
18.9 GB
Seeders: 3
Leechers: 1
Il cammino per Santiago (2010), [BDrip 1080p - H264 - Ita Eng Dts Ac3 5 1 - Sub NUIta]Drammatico by BLUWORLD