Chapitre 54
Documentaries
Loading...
Loading...
Loading...

La profezia d'Avignone S01e01-08, [Mux - XviD - Ita Mp3] DVDMux by #onair

Seeders: 3
Leechers: n/a
Completed: n/a

Age: 2 months    Visits: 53    Category: TV    Size: 2.8 GB

Posted by: Alice1337x    Comments: Read Comments

Info Hash: 12F15927B3078A8B96E153AFA9E610C52F0DF33F



Now You Can Download Torrents From Kat.cr, Kickasstorrent Very Easily



Torrent Description



La profezia d'Avignone S01e01-08



Anno: 2007
Genere: thriller, fantasy

Cast:
Louise Monot: Estelle Esperanza
Annie Grégorio: Commissairio Renard
Guillaume Cramoisan: Olivier Royal
Jean-Marie Winling: Henri Esperanza
Marthe Keller: Dona Flores
François Dunoyer: Jean Esperanza
Bruno Madinier: David Perisse
François Perrot: Louis Esperanza
Elise Tielrooy: Nadine Esperanza
Claude Gensac: Odette Esperanza
Valeria Cavalli: Sandra Esperanza
Gonzague Montuel: Julien Esperanza
Serge Gisquière: Gil
Salem Kali: Mehdi
Emmanuelle Boidron: Elsa

A palazzo Esperanza, la giovane Estelle scopre che suo nonno è ancora sulle tracce di una profezia di cui le raccontava quando era piccola. Tale profezia, opera del papa Giovanni XXII, svelerebbe il futuro del mondo fino all'anno 4400. Estelle, ormai adulta, non crede più all'esistenza della profezia, la cui scoperta dovrebbe avvenire, secondo la leggenda, ad opera di un membro della famiglia Esperanza nell'arco di un ciclo lunare, caratterizzato dalla manifestazione di alcuni segni. Ma un primo segno sembra manifestarsi quando, durante degli scavi archeologici ad Avignone, viene ritrovato un rosone luminoso nascosto da un muro. Estelle viene allontanata dal sito archeologico ma vi fa ritorno di notte, assieme a suo nonno e a David, un dipendente, che, disponendo dell'accesso, li aiuta a entrare. Estelle e il nonno trovano il tesoro nascosto di papa Giovanni XXII con gli indizi per scoprire la profezia, ma il vecchio archeologo ha un malore per l'emozione. Viene portato in ospedale e, dopo essersi svegliato da un sonno profondo, subisce l'aggressione di un uomo proprio nel momento in cui Estelle, rimasta a vegliarlo durante la notte, si era allontanata. La ragazza, sentendo le urla, corre dal nonno, che fa appena in tempo a metterla in guardia da un'associazione segreta chiamata Fratelli di Giuda, e a confessarle che è lei la prescelta per scoprire la profezia e combattere la setta segreta. Altra vittima dei Fratelli di Giuda è un'amica di Estelle, uccisa perché scambiata per lei.






General
Complete name : D:\Da uppare\La profezia d'Avignone S01e01-08\La Profezia d Avignone 1x01.avi
Format : AVI
Format/Info : Audio Video Interleave
File size : 353 MiB
Duration : 48 min 52 s
Overall bit rate : 1 010 kb/s
Writing application : VirtualDubMod 1.5.10.2 (build 2540/release)
Writing library : VirtualDubMod build 2540/release

Video
ID : 0
Format : MPEG-4 Visual
Format profile : Advanced [email protected]
Format settings, BVOP : No
Format settings, QPel : No
Format settings, GMC : No warppoints
Format settings, Matrix : Default (H.263)
Codec ID : XVID
Codec ID/Hint : XviD
Duration : 48 min 52 s
Bit rate : 840 kb/s
Width : 640 pixels
Height : 352 pixels
Display aspect ratio : 16:9
Frame rate : 25.000 FPS
Color space : YUV
Chroma subsampling : 4:2:0
Bit depth : 8 bits
Scan type : Progressive
Compression mode : Lossy
Bits/(Pixel*Frame) : 0.149
Stream size : 294 MiB (83%)
Writing library : XviD 1.2.0.dev47 (UTC 2006-11-01)

Audio
ID : 1
Format : MPEG Audio
Format version : Version 1
Format profile : Layer 3
Format settings : Joint stereo
Codec ID : 55
Codec ID/Hint : MP3
Duration : 48 min 51 s
Bit rate mode : Constant
Bit rate : 160 kb/s
Channel(s) : 2 channels
Sampling rate : 48.0 kHz
Compression mode : Lossy
Stream size : 55.9 MiB (16%)
Alignment : Aligned on interleaves
Interleave, duration : 40 ms (1.00 video frame)
Interleave, preload duration : 504 ms





Recently Added Torrents in TV

Trackers List

tracker name
udp://tracker.opentrackr.org:1337/announce
udp://tracker.leechers-paradise.org:6969/announce
udp://tracker.pirateparty.gr:6969/announce
udp://tracker.coppersurfer.tk:6969/announce
udp://tracker.mg64.net:2710/announce
udp://tracker.zer0day.to:1337/announce

Sharing Widget


Download torrent
2.8 GB
Seeders: 3
Leechers: n/a
La profezia d'Avignone S01e01-08, [Mux - XviD - Ita Mp3] DVDMux by #onair