Wondershare DVD Slideshow Builder Deluxe 6 7 0 + Keygen
1x434 Elif
Loading...
Loading...
Loading...
Loading...

La scelta di Sophie - Sophie's choice (1982), [BDrip 1080p - H264 - Ita Dts Eng Ac3 - Sub Ita Eng] Drammatico by Aln

Seeders: 1
Leechers: 1
Completed: 19

Age: 2 months    Visits: 77    Category: Movies    Size: 13.7 GB

Posted by: Alice1337x    Comments: Read Comments

Info Hash: B369EAD7DD52EA8C4D61BE598DC829DD919DB3FA



Now You Can Download Torrents From Kat.cr, Kickasstorrent Very Easily



Torrent Description



La scelta di Sophie (1982)



Titolo originale: Sophie's Choice
Nazionalità: Stati Uniti
Anno: 1982
Genere: drammatico
Regia: Alan J. Pakula

Cast:

Meryl Streep: Sophie Zawistowska
Kevin Kline: Nathan Landau
Peter MacNicol: Stingo
Rita Karin: Yetta
Stephen D. Newman: Larry Landau
Greta Turken: Leslie Lapidus
Josh Mostel: Morris Fink
Marcell Rosenblatt: Astrid Weinstein
Moishe Rosenfeld: sé stesso
Robin Bartlett: Lillian Grossman
John Rothman: bibliotecario
Katharina Thalbach: Wanda
Nedim Prohic: Jozef
Jennifer Lawn: Eva Zawistowska
Adrian Kalitka: Jan Zawistowska

La scelta di Sophie, ebrea ex internata in un campo di sterminio nazista, fu quella di abbandonare al suo destino la figlioletta per salvare se stessa e l'altro figlio, divenendo collaboratrice del comandante del lager di Auschwitz. Una scelta che ha segnato angosciosamente la sua vita, e che racconta, dopo la guerra, a Stingo, uno scrittore coinquilino nella casa in cui abita a New York, che è diventato amico suo e del marito, un geniale ma nevrotico intellettuale. Lo strano ménage a tre continua finché Sophie, dopo essersi concessa allo scrittore innamoratosi di lei, si suicida insieme al marito.






General
Unique ID : 220462955595942655752559396783810285072 (0xA5DB9EEB817EC95387925407F2A20E10)
Complete name : D:\Da uppare\La.Scelta.di.Sophie.1982.BluRay.1080p.DTS.ITA.AC3.ENG.Subs.x264.Aln.mkv
Format : Matroska
Format version : Version 4 / Version 2
File size : 13.7 GiB
Duration : 2 h 31 min
Overall bit rate : 13.0 Mb/s
Encoded date : UTC 2016-01-17 04:10:14
Writing application : mkvmerge v8.1.0 ('Psychedelic Postcard') 64bit
Writing library : libebml v1.3.1 + libmatroska v1.4.2

Video
ID : 1
Format : AVC
Format/Info : Advanced Video Codec
Format profile : [email protected]
Format settings : CABAC / 4 Ref Frames
Format settings, CABAC : Yes
Format settings, RefFrames : 4 frames
Codec ID : V_MPEG4/ISO/AVC
Duration : 2 h 31 min
Bit rate : 12.3 Mb/s
Width : 1 920 pixels
Height : 1 040 pixels
Display aspect ratio : 1.85:1
Frame rate mode : Constant
Frame rate : 23.976 (24000/1001) FPS
Color space : YUV
Chroma subsampling : 4:2:0
Bit depth : 8 bits
Scan type : Progressive
Bits/(Pixel*Frame) : 0.257
Stream size : 13.0 GiB (95%)
Writing library : x264 core 148 r2638 7599210
Default : Yes
Forced : No

Audio #1
ID : 2
Format : DTS
Format/Info : Digital Theater Systems
Codec ID : A_DTS
Duration : 2 h 31 min
Bit rate mode : Constant
Bit rate : 447 kb/s
Channel(s) : 2 channels
Channel positions : Front: L R
Sampling rate : 48.0 kHz
Frame rate : 93.750 FPS (512 SPF)
Bit depth : 24 bits
Compression mode : Lossy
Stream size : 483 MiB (3%)
Title : DTS ITA
Language : Italian
Default : Yes
Forced : No

Audio #2
ID : 3
Format : AC-3
Format/Info : Audio Coding 3
Codec ID : A_AC3
Duration : 2 h 31 min
Bit rate mode : Constant
Bit rate : 192 kb/s
Channel(s) : 2 channels
Channel positions : Front: L R
Sampling rate : 48.0 kHz
Frame rate : 31.250 FPS (1536 SPF)
Bit depth : 16 bits
Compression mode : Lossy
Stream size : 208 MiB (1%)
Title : AC3 ENG
Language : English
Service kind : Complete Main
Default : No
Forced : No

Text #1
ID : 4
Format : UTF-8
Codec ID : S_TEXT/UTF8
Codec ID/Info : UTF-8 Plain Text
Duration : 1 h 3 min
Bit rate : 19 b/s
Count of elements : 272
Stream size : 9.12 KiB (0%)
Title : forced ita
Language : Italian
Default : Yes
Forced : No

Text #2
ID : 5
Format : UTF-8
Codec ID : S_TEXT/UTF8
Codec ID/Info : UTF-8 Plain Text
Duration : 2 h 29 min
Bit rate : 48 b/s
Count of elements : 1611
Stream size : 52.7 KiB (0%)
Title : Sub ita
Language : Italian
Default : No
Forced : No

Text #3
ID : 6
Format : UTF-8
Codec ID : S_TEXT/UTF8
Codec ID/Info : UTF-8 Plain Text
Duration : 2 h 25 min
Bit rate : 56 b/s
Count of elements : 1919
Stream size : 60.1 KiB (0%)
Title : Sub eng
Language : English
Default : No
Forced : No

Menu
00:00:00.000 : en:00:00:00.000
00:12:37.256 : en:00:12:37.256
00:24:10.991 : en:00:24:10.991
00:31:09.076 : en:00:31:09.076
00:37:13.690 : en:00:37:13.690
00:51:16.532 : en:00:51:16.532
00:57:43.794 : en:00:57:43.794
01:03:58.418 : en:01:03:58.418
01:13:16.142 : en:01:13:16.142
01:20:49.261 : en:01:20:49.261
01:28:53.620 : en:01:28:53.620
01:36:46.884 : en:01:36:46.884
01:48:01.642 : en:01:48:01.642
01:55:21.248 : en:01:55:21.248
02:03:22.478 : en:02:03:22.478
02:13:28.667 : en:02:13:28.667
02:22:25.454 : en:02:22:25.454
02:28:02.499 : en:02:28:02.499









Recently Added Torrents in Movies

Trackers List

tracker name
udp://tracker.opentrackr.org:1337/announce
udp://tracker.leechers-paradise.org:6969/announce
udp://tracker.pirateparty.gr:6969/announce
udp://tracker.coppersurfer.tk:6969/announce
udp://tracker.mg64.net:2710/announce
udp://tracker.zer0day.to:1337/announce

Sharing Widget


Download torrent
13.7 GB
Seeders: 1
Leechers: 1
La scelta di Sophie - Sophie's choice (1982), [BDrip 1080p - H264 - Ita Dts Eng Ac3 - Sub Ita Eng] Drammatico by Aln