El corredor del laberinto La cura mortal (2018) descarga gratuita la película completa
Kill la Kill
Loading...
Loading...
Loading...
Loading...

Land of Mine - Sotto la sabbia (2015), [BDrip 1080p - H264 - Ita Deu Dts 5 1 Ita Ac3 5 1 - MultiSub] Drammatico - by BLUWORLD

Seeders: 3
Leechers: 1
Completed: 2

Age: 2 months    Visits: 133    Category: Movies    Size: 8.8 GB

Posted by: Alice1337x    Comments: Read Comments

Info Hash: B3E10E9E01D7BAAED777C6001B89C1D6457B4349



Now You Can Download Torrents From Kat.cr, Kickasstorrent Very Easily



Torrent Description



Land of Mine - Sotto la sabbia (2015)



Titolo originale: Under Sandet
Nazionalità: Danimarca, Germania
Anno: 2015
Genere: drammatico
Regia: Martin Zandvliet

Cast:
Roland Møller: Sergente Rasmussen
Mikkel Følsgaard: Tenente Ebbe
Laura Bro: Karin
Louis Hofmann: Sebastian Schumann
Joel Basman: Helmut Morbach
Oskar Bökelmann: Ludwig Haffke
Emil Buschow: Werner Lessner
Leon Seidel: Wilhelm Hahn
Karl Alexander Seider: Manfred
Maximilian Beck: August Kluger
August Carter: Rodolf Selke
Tim Bulow: Hermann Marklein
Alexander Rasch: Friedrich Schnurr
Julius Kochinke: Johann Wolff

Nei giorni successivi alla resa della Germania nel maggio 1945, un gruppo di giovani prigionieri di guerra tedeschi viene inviato dalle autorità danesi lungo i confini della Danimarca con l'ordine di rimuovere più di due milioni di mine che i tedeschi avevano sotterrato nella sabbia lungo la costa. Con le loro mani nude i ragazzi sono costretti a svolgere questo pericoloso compito sotto la guida del sergente danese Carl Leopold Rasmussen.




General
Unique ID : 189665127752911423104746478591448028259 (0x8EB02CC5E3698535B86448CAF5B19463)
Complete name : D:\Downloads\Land.Of.Mine-Sotto.La.Sabbia.2015.DTS.ITA.GER.1080p.BluRay.x264-BLUWORLD.mkv
Format : Matroska
Format version : Version 4 / Version 2
File size : 8.81 GiB
Duration : 1 h 41 min
Overall bit rate mode : Variable
Overall bit rate : 12.4 Mb/s
Encoded date : UTC 2016-07-09 07:18:13
Writing application : mkvmerge v9.2.0 ('Photograph') 32bit
Writing library : libebml v1.3.3 + libmatroska v1.4.4

Video
ID : 1
Format : AVC
Format/Info : Advanced Video Codec
Format profile : [email protected]
Format settings, CABAC : Yes
Format settings, ReFrames : 5 frames
Codec ID : V_MPEG4/ISO/AVC
Duration : 1 h 41 min
Bit rate mode : Variable
Bit rate : 8 800 kb/s
Maximum bit rate : 62.5 Mb/s
Width : 1 920 pixels
Height : 804 pixels
Display aspect ratio : 2.40:1
Frame rate mode : Constant
Frame rate : 24.000 FPS
Color space : YUV
Chroma subsampling : 4:2:0
Bit depth : 8 bits
Scan type : Progressive
Bits/(Pixel*Frame) : 0.238
Stream size : 6.22 GiB (71%)
Writing library : x264 core 148 r2694 3b70645
Default : Yes
Forced : No

Audio #1
ID : 2
Format : DTS
Format/Info : Digital Theater Systems
Mode : 16
Format settings, Endianness : Big
Codec ID : A_DTS
Duration : 1 h 41 min
Bit rate mode : Constant
Bit rate : 1 509 kb/s
Channel(s) : 6 channels
Channel positions : Front: L C R, Side: L R, LFE
Sampling rate : 48.0 kHz
Frame rate : 93.750 FPS (512 spf)
Bit depth : 24 bits
Compression mode : Lossy
Stream size : 1.07 GiB (12%)
Title : Ita. DTS 1510 Kbps
Language : Italian
Default : Yes
Forced : No

Audio #2
ID : 3
Format : AC-3
Format/Info : Audio Coding 3
Format settings, Endianness : Big
Codec ID : A_AC3
Duration : 1 h 41 min
Bit rate mode : Constant
Bit rate : 640 kb/s
Channel(s) : 6 channels
Channel positions : Front: L C R, Side: L R, LFE
Sampling rate : 48.0 kHz
Frame rate : 31.250 FPS (1536 spf)
Bit depth : 16 bits
Compression mode : Lossy
Stream size : 464 MiB (5%)
Title : Ita. AC3 640 Kbps
Language : Italian
Service kind : Complete Main
Default : No
Forced : No

Audio #3
ID : 4
Format : DTS
Format/Info : Digital Theater Systems
Mode : 16
Format settings, Endianness : Big
Codec ID : A_DTS
Duration : 1 h 41 min
Bit rate mode : Constant
Bit rate : 1 509 kb/s
Channel(s) : 6 channels
Channel positions : Front: L C R, Side: L R, LFE
Sampling rate : 48.0 kHz
Frame rate : 93.750 FPS (512 spf)
Bit depth : 24 bits
Compression mode : Lossy
Stream size : 1.07 GiB (12%)
Title : Ger. DTS 1510 Kbps
Language : German
Default : No
Forced : No

Text #1
ID : 5
Format : UTF-8
Codec ID : S_TEXT/UTF8
Codec ID/Info : UTF-8 Plain Text
Duration : 1 h 32 min
Bit rate : 39 b/s
Count of elements : 859
Stream size : 26.7 KiB (0%)
Title : Sub. Ita. Non Udenti
Language : Italian
Default : No
Forced : No

Text #2
ID : 6
Format : UTF-8
Codec ID : S_TEXT/UTF8
Codec ID/Info : UTF-8 Plain Text
Duration : 1 h 32 min
Bit rate : 41 b/s
Count of elements : 859
Stream size : 28.4 KiB (0%)
Title : Sub. Ger.
Language : German
Default : No
Forced : No

Text #3
ID : 7
Format : UTF-8
Codec ID : S_TEXT/UTF8
Codec ID/Info : UTF-8 Plain Text
Duration : 1 h 32 min
Bit rate : 36 b/s
Count of elements : 859
Stream size : 24.7 KiB (0%)
Title : Sub. Eng.
Language : English
Default : No
Forced : No

Menu
00:00:00.000 : en:00:00:00.000
00:01:38.042 : en:00:01:38.042
00:07:02.958 : en:00:07:02.958
00:11:25.667 : en:00:11:25.667
00:18:15.958 : en:00:18:15.958
00:22:58.875 : en:00:22:58.875
00:28:15.375 : en:00:28:15.375
00:34:04.250 : en:00:34:04.250
00:39:08.458 : en:00:39:08.458
00:45:48.458 : en:00:45:48.458
00:51:09.250 : en:00:51:09.250
00:56:47.000 : en:00:56:47.000
01:03:13.917 : en:01:03:13.917
01:07:33.125 : en:01:07:33.125
01:13:37.667 : en:01:13:37.667
01:18:17.042 : en:01:18:17.042
01:20:26.542 : en:01:20:26.542
01:25:22.167 : en:01:25:22.167
01:31:34.083 : en:01:31:34.083
01:35:51.500 : en:01:35:51.500









Recently Added Torrents in Movies

Trackers List

tracker name
udp://tracker.opentrackr.org:1337/announce
udp://tracker.leechers-paradise.org:6969/announce
udp://tracker.pirateparty.gr:6969/announce
udp://tracker.coppersurfer.tk:6969/announce
udp://tracker.mg64.net:2710/announce
udp://tracker.zer0day.to:1337/announce

Sharing Widget


Download torrent
8.8 GB
Seeders: 3
Leechers: 1
Land of Mine - Sotto la sabbia (2015), [BDrip 1080p - H264 - Ita Deu Dts 5 1 Ita Ac3 5 1 - MultiSub] Drammatico - by BLUWORLD