FLCL / Furi Kuri
Missing 2018 Full Movie HD Download DVDrip
Loading...
Loading...
Loading...

Nayaki (2018) Hindi Dubbed Movie HDTVRip x264 AAC [MovCR]

Seeders: 3
Leechers: 65
Completed: n/a

Age: 34 minutes    Visits: 6    Category: Movies    Size: 1.2 GB

Posted by: ictv    Comments: Read Comments

Info Hash: 9F6FDE2EDC9616B7F35846ABBF5E770186F5CAD3



Now You Can Download Torrents From Kat.cr, Kickasstorrent Very Easily



Torrent Description



Visit  www.movcr.com

http://www.imdb.com/title/tt5884386/



General
Unique ID                                : 187809673040755238036584020221846267531 (0x8D4AD3CAF273C3FA8559DCF6FE9AA68B)
Complete name                            : [www.MovCR.com] Nayaki (2016) Hindi Dubbed Movie HDTVRip x264 AAC [MovCR]\www.MovCR.com - Nayaki (2016) Hindi Dubbed Movie HDTVRip x264 AAC [MovCR].mkv
Format                                   : Matroska
Format version                           : Version 4 / Version 2
File size                                : 1.17 GiB
Duration                                 : 2 h 4 min
Overall bit rate                         : 1 336 kb/s
Movie name                               : www.MovCR.com
Encoded date                             : UTC 2018-04-17 01:21:59
Writing application                      : mkvmerge v9.5.0 ('Quiet Fire') 64bit
Writing library                          : libebml v1.3.4 + libmatroska v1.4.5

Video
ID                                       : 1
Format                                   : AVC
Format/Info                              : Advanced Video Codec
Format profile                           : [email protected]
Format settings                          : 2 Ref Frames
Format settings, CABAC                   : No
Format settings, RefFrames               : 2 frames
Codec ID                                 : V_MPEG4/ISO/AVC
Duration                                 : 2 h 4 min
Bit rate                                 : 1 200 kb/s
Width                                    : 720 pixels
Height                                   : 384 pixels
Display aspect ratio                     : 1.85:1
Frame rate mode                          : Constant
Frame rate                               : 30.000 FPS
Color space                              : YUV
Chroma subsampling                       : 4:2:0
Bit depth                                : 8 bits
Scan type                                : Progressive
Bits/(Pixel*Frame)                       : 0.145
Stream size                              : 1.05 GiB (90%)
Title                                    : www.MovCR.com
Writing library                          : x264 core 142
Encoding settings                        : cabac=0 / ref=2 / deblock=1:0:0 / analyse=0x1:0x111 / me=hex / subme=4 / psy=1 / psy_rd=1.00:0.00 / mixed_ref=0 / me_range=16 / chroma_me=1 / trellis=1 / 8x8dct=0 / cqm=0 / deadzone=21,11 / fast_pskip=1 / chroma_qp_offset=0 / threads=6 / lookahead_threads=1 / sliced_threads=0 / nr=0 / decimate=1 / interlaced=0 / bluray_compat=0 / constrained_intra=0 / bframes=0 / weightp=0 / keyint=250 / keyint_min=25 / scenecut=40 / intra_refresh=0 / rc_lookahead=20 / rc=abr / mbtree=1 / bitrate=1200 / ratetol=1.0 / qcomp=0.60 / qpmin=0 / qpmax=69 / qpstep=4 / ip_ratio=1.40 / aq=1:1.00
Default                                  : Yes
Forced                                   : No

Audio
ID                                       : 2
Format                                   : AAC
Format/Info                              : Advanced Audio Codec
Format profile                           : LC
Codec ID                                 : A_AAC-2
Duration                                 : 2 h 4 min
Bit rate                                 : 128 kb/s
Channel(s)                               : 2 channels
Channel positions                        : Front: L R
Sampling rate                            : 44.1 kHz
Frame rate                               : 43.066 FPS (1024 SPF)
Compression mode                         : Lossy
Delay relative to video                  : -23 ms
Stream size                              : 114 MiB (10%)
Title                                    : www.MovCR.com
Language                                 : Hindi
Default                                  : Yes
Forced                                   : No








Recently Added Torrents in Movies

Trackers List

tracker name
udp://tracker.opentrackr.org:1337/announce
udp://tracker.leechers-paradise.org:6969/announce
udp://tracker.pirateparty.gr:6969/announce
udp://tracker.coppersurfer.tk:6969/announce
udp://tracker.mg64.net:2710/announce
udp://tracker.zer0day.to:1337/announce

Sharing Widget


Download torrent
1.2 GB
Seeders: 3
Leechers: 65
Nayaki (2018) Hindi Dubbed Movie HDTVRip x264 AAC [MovCR]