Download Movie
Star Trek: Discovery
Loading...
Loading...
Loading...

Radici 2016 S01e01-04, [H264 - Ita Aac] WEBRip by ADE

Seeders: 3
Leechers: n/a
Completed: 8

Age: 2 months    Visits: 64    Category: TV    Size: 2.8 GB

Posted by: Alice1337x    Comments: Read Comments

Info Hash: 25C2C49069617FF2FB753E96FE7923096EB8E2A0



Now You Can Download Torrents From Kat.cr, Kickasstorrent Very Easily



Torrent Description



Radici 2016 S01e01-04



Anno: 2016
Genere: drammatico, in costume

Cast:
Malachi Kirby: Kunta Kinte
Babs Olusanmokun: Omoro Kinte
Nokuthula Ledwaba: Binta Kinte
Emayatzy Corinealdi: Belle
Forest Whitaker: Henry (Violinista)
Anika Noni Rose: Kizzy Waller
Emyri Crutchfield: giovane Kizzy Waller
Saniyya Sidney: Kizzy all'età di 6 anni
Regé-Jean Page: George Lea "Chicken George"
Erica Tazel: Matilda
James Purefoy: John Waller
Katie McGuinness: Elizabeth Waller
Matthew Goode: dott. William Waller
Jonathan Rhys Meyers: Tom Lea
Shannon Lucio: Patricia Lea
Chad Coleman: Mingo
Tony Curran: Connelly
Anna Paquin: Nancy Holt
T.I.: Cyrus
Derek Luke: Silla Ba Dibba
G. Hannelius: Missy Waller
Carlacia Grant: Irene
Mekhi Phifer: Jerusalem/Charles Montpelier
Sam Malone: Ashford
Denise Milfort: signorina Ellen
Mandela Van Peebles: Noah
Terence Rosemore: Orly
Lane Garrison: Frederick Murray
Wayne Pére: Benjamin Murray
Sedale Threatt Jr.: Tom
Brett Rice: William Byrd
Laurence Fishburne: Alex Haley

Remake della storica serie televisiva ispirata al romanzo omonimo firmato da Alex Haley che narra la vita di Kunta Kinte, dal suo rapimento in Africa dai parte dei trafficanti di schiavi, fino all'arrivo negli Stati Uniti dove si ritroverà incatenato a lavorare per l'uomo bianco.

Screenshots






MediaInfo di tutta la stagione

General
Unique ID : 244622213079897391562687987592839504328 (0xB80886472872C870D202198E89FB21C8)
Complete name : D:\Da uppare\Radici 2016 S01e01-04\Radici.2016.1x01.Episodio.1.iTA.AAC.WEBRip.x264-ADE.CreW.mkv
Format : Matroska
Format version : Version 4 / Version 2
File size : 737 MiB
Duration : 1 h 28 min
Overall bit rate : 1 169 kb/s
Encoded date : UTC 2016-12-18 00:27:08 / UTC 2016-12-18 00:27:08
Writing application : Lavf56.1.100
Writing library : Lavf56.1.100

Video
ID : 1
Format : AVC
Format/Info : Advanced Video Codec
Format profile : [email protected]
Format settings : CABAC / 7 Ref Frames
Format settings, CABAC : Yes
Format settings, RefFrames : 7 frames
Codec ID : V_MPEG4/ISO/AVC
Duration : 1 h 28 min
Width : 720 pixels
Height : 404 pixels
Display aspect ratio : 16:9
Frame rate mode : Constant
Frame rate : 25.000 FPS
Color space : YUV
Chroma subsampling : 4:2:0
Bit depth : 8 bits
Scan type : Progressive
Default : Yes
Forced : No
Statistics Tags Issue : mkvmerge v7.9.0 ('Birds') 32bit 2016-12-18 00:27:08 / Lavf56.1.100 2016-12-18 00:27:08 / UTC 2016-12-18 00:27:08
FromStats_BitRate : 1049855
FromStats_Duration : 01:28:33.640000000
FromStats_FrameCount : 132841
FromStats_StreamSize : 697319037

Audio
ID : 2
Format : AAC
Format/Info : Advanced Audio Codec
Format profile : LC
Codec ID : A_AAC-2
Duration : 1 h 28 min
Channel(s) : 2 channels
Channel positions : Front: L R
Sampling rate : 48.0 kHz
Frame rate : 46.875 FPS (1024 SPF)
Compression mode : Lossy
Delay relative to video : -2 ms
Language : English
Default : Yes
Forced : No
Statistics Tags Issue : mkvmerge v7.9.0 ('Birds') 32bit 2016-12-18 00:27:08 / Lavf56.1.100 2016-12-18 00:27:08 / UTC 2016-12-18 00:27:08
FromStats_BitRate : 110999
FromStats_Duration : 01:28:33.600000000
FromStats_FrameCount : 249075
FromStats_StreamSize : 73726018

General
Unique ID : 247544082387576860876921743449759856380 (0xBA3B418EA140FA2F8F0AB9B6D4AAB6FC)
Complete name : D:\Da uppare\Radici 2016 S01e01-04\Radici.2016.1x02.Episodio.2.iTA.AAC.WEBRip.x264-ADE.CreW.mkv
Format : Matroska
Format version : Version 2
File size : 733 MiB
Duration : 1 h 28 min
Overall bit rate : 1 163 kb/s
Encoded date : UTC 2016-12-24 15:56:41
Writing application : mkvmerge v7.9.0 ('Birds') 32bit
Writing library : libebml v1.3.1 + libmatroska v1.4.2

Video
ID : 1
Format : AVC
Format/Info : Advanced Video Codec
Format profile : [email protected]
Format settings : CABAC / 7 Ref Frames
Format settings, CABAC : Yes
Format settings, RefFrames : 7 frames
Codec ID : V_MPEG4/ISO/AVC
Duration : 1 h 28 min
Bit rate : 1 050 kb/s
Width : 720 pixels
Height : 404 pixels
Display aspect ratio : 16:9
Frame rate mode : Constant
Frame rate : 25.000 FPS
Color space : YUV
Chroma subsampling : 4:2:0
Bit depth : 8 bits
Scan type : Progressive
Bits/(Pixel*Frame) : 0.144
Stream size : 662 MiB (90%)
Writing library : x264 core 146 r2538 121396c
Encoding settings : cabac=1 / ref=7 / deblock=1:-2:-2 / analyse=0x3:0x133 / me=umh / subme=9 / psy=1 / psy_rd=1.00:0.00 / mixed_ref=1 / me_range=16 / chroma_me=1 / trellis=2 / 8x8dct=1 / cqm=0 / deadzone=21,11 / fast_pskip=1 / chroma_qp_offset=-2 / threads=12 / lookahead_threads=1 / sliced_threads=0 / nr=0 / decimate=1 / interlaced=0 / bluray_compat=0 / constrained_intra=0 / bframes=3 / b_pyramid=2 / b_adapt=2 / b_bias=0 / direct=3 / weightb=1 / open_gop=0 / weightp=2 / keyint=250 / keyint_min=23 / scenecut=40 / intra_refresh=0 / rc_lookahead=50 / rc=2pass / mbtree=1 / bitrate=1050 / ratetol=1.0 / qcomp=0.60 / qpmin=0 / qpmax=69 / qpstep=4 / cplxblur=20.0 / qblur=0.5 / ip_ratio=1.40 / aq=1:1.00
Default : Yes
Forced : No

Audio
ID : 2
Format : AAC
Format/Info : Advanced Audio Codec
Format profile : LC
Codec ID : A_AAC-2
Duration : 1 h 28 min
Bit rate : 111 kb/s
Channel(s) : 2 channels
Channel positions : Front: L R
Sampling rate : 48.0 kHz
Frame rate : 46.875 FPS (1024 SPF)
Compression mode : Lossy
Delay relative to video : 9 ms
Stream size : 70.0 MiB (10%)
Language : English
Default : Yes
Forced : No

General
Unique ID : 232576204872636895141490566792175758411 (0xAEF88C38239E3F2D8066811BB9B12C4B)
Complete name : D:\Da uppare\Radici 2016 S01e01-04\Radici.2016.1x03.Episodio.3.iTA.AAC.WEBRip.x264-ADE.CreW.mkv
Format : Matroska
Format version : Version 2
File size : 644 MiB
Duration : 1 h 17 min
Overall bit rate : 1 163 kb/s
Encoded date : UTC 2016-12-31 13:20:20
Writing application : mkvmerge v7.9.0 ('Birds') 32bit
Writing library : libebml v1.3.1 + libmatroska v1.4.2

Video
ID : 1
Format : AVC
Format/Info : Advanced Video Codec
Format profile : [email protected]
Format settings : CABAC / 7 Ref Frames
Format settings, CABAC : Yes
Format settings, RefFrames : 7 frames
Codec ID : V_MPEG4/ISO/AVC
Duration : 1 h 17 min
Bit rate : 1 050 kb/s
Width : 720 pixels
Height : 404 pixels
Display aspect ratio : 16:9
Frame rate mode : Constant
Frame rate : 25.000 FPS
Color space : YUV
Chroma subsampling : 4:2:0
Bit depth : 8 bits
Scan type : Progressive
Bits/(Pixel*Frame) : 0.144
Stream size : 581 MiB (90%)
Writing library : x264 core 146 r2538 121396c
Encoding settings : cabac=1 / ref=7 / deblock=1:-2:-2 / analyse=0x3:0x133 / me=umh / subme=9 / psy=1 / psy_rd=1.00:0.00 / mixed_ref=1 / me_range=16 / chroma_me=1 / trellis=2 / 8x8dct=1 / cqm=0 / deadzone=21,11 / fast_pskip=1 / chroma_qp_offset=-2 / threads=12 / lookahead_threads=1 / sliced_threads=0 / nr=0 / decimate=1 / interlaced=0 / bluray_compat=0 / constrained_intra=0 / bframes=3 / b_pyramid=2 / b_adapt=2 / b_bias=0 / direct=3 / weightb=1 / open_gop=0 / weightp=2 / keyint=250 / keyint_min=23 / scenecut=40 / intra_refresh=0 / rc_lookahead=50 / rc=2pass / mbtree=1 / bitrate=1050 / ratetol=1.0 / qcomp=0.60 / qpmin=0 / qpmax=69 / qpstep=4 / cplxblur=20.0 / qblur=0.5 / ip_ratio=1.40 / aq=1:1.00
Default : Yes
Forced : No

Audio
ID : 2
Format : AAC
Format/Info : Advanced Audio Codec
Format profile : LC
Codec ID : A_AAC-2
Duration : 1 h 17 min
Bit rate : 111 kb/s
Channel(s) : 2 channels
Channel positions : Front: L R
Sampling rate : 48.0 kHz
Frame rate : 46.875 FPS (1024 SPF)
Compression mode : Lossy
Delay relative to video : 9 ms
Stream size : 61.5 MiB (10%)
Language : English
Default : Yes
Forced : No

General
Unique ID : 181570289986687922775284445775290788346 (0x88992A751F4B6213959A1EBF5D0D69FA)
Complete name : D:\Da uppare\Radici 2016 S01e01-04\Radici.2016.1x04.Episodio.4.iTA.AAC.WEBRip.x264-ADE.CreW.mkv
Format : Matroska
Format version : Version 2
File size : 720 MiB
Duration : 1 h 26 min
Overall bit rate : 1 163 kb/s
Encoded date : UTC 2017-01-07 02:41:37
Writing application : mkvmerge v7.9.0 ('Birds') 32bit
Writing library : libebml v1.3.1 + libmatroska v1.4.2

Video
ID : 1
Format : AVC
Format/Info : Advanced Video Codec
Format profile : [email protected]
Format settings : CABAC / 7 Ref Frames
Format settings, CABAC : Yes
Format settings, RefFrames : 7 frames
Codec ID : V_MPEG4/ISO/AVC
Duration : 1 h 26 min
Bit rate : 1 050 kb/s
Width : 720 pixels
Height : 404 pixels
Display aspect ratio : 16:9
Frame rate mode : Constant
Frame rate : 25.000 FPS
Color space : YUV
Chroma subsampling : 4:2:0
Bit depth : 8 bits
Scan type : Progressive
Bits/(Pixel*Frame) : 0.144
Stream size : 650 MiB (90%)
Writing library : x264 core 146 r2538 121396c
Encoding settings : cabac=1 / ref=7 / deblock=1:-2:-2 / analyse=0x3:0x133 / me=umh / subme=9 / psy=1 / psy_rd=1.00:0.00 / mixed_ref=1 / me_range=16 / chroma_me=1 / trellis=2 / 8x8dct=1 / cqm=0 / deadzone=21,11 / fast_pskip=1 / chroma_qp_offset=-2 / threads=12 / lookahead_threads=1 / sliced_threads=0 / nr=0 / decimate=1 / interlaced=0 / bluray_compat=0 / constrained_intra=0 / bframes=3 / b_pyramid=2 / b_adapt=2 / b_bias=0 / direct=3 / weightb=1 / open_gop=0 / weightp=2 / keyint=250 / keyint_min=23 / scenecut=40 / intra_refresh=0 / rc_lookahead=50 / rc=2pass / mbtree=1 / bitrate=1050 / ratetol=1.0 / qcomp=0.60 / qpmin=0 / qpmax=69 / qpstep=4 / cplxblur=20.0 / qblur=0.5 / ip_ratio=1.40 / aq=1:1.00
Default : Yes
Forced : No

Audio
ID : 2
Format : AAC
Format/Info : Advanced Audio Codec
Format profile : LC
Codec ID : A_AAC-2
Duration : 1 h 26 min
Bit rate : 111 kb/s
Channel(s) : 2 channels
Channel positions : Front: L R
Sampling rate : 48.0 kHz
Frame rate : 46.875 FPS (1024 SPF)
Compression mode : Lossy
Delay relative to video : 9 ms
Stream size : 68.7 MiB (10%)
Language : English
Default : Yes
Forced : No








Recently Added Torrents in TV

Trackers List

tracker name
udp://tracker.opentrackr.org:1337/announce
udp://tracker.leechers-paradise.org:6969/announce
udp://tracker.pirateparty.gr:6969/announce
udp://tracker.coppersurfer.tk:6969/announce
udp://tracker.mg64.net:2710/announce
udp://tracker.zer0day.to:1337/announce

Sharing Widget


Download torrent
2.8 GB
Seeders: 3
Leechers: n/a
Radici 2016 S01e01-04, [H264 - Ita Aac] WEBRip by ADE