Any Video Converter Ultimate 6 2 3 + Crack
alternative rock
Loading...
Loading...
Loading...
Loading...

The Skulls - I teschi (2000), [Mux 720p - H264 - Ita Eng Rus Ac3 - Sub Eng] WEB-DLMux thriller, drammatico

Seeders: 2
Leechers: n/a
Completed: n/a

Age: 2 months    Visits: 55    Category: Movies    Size: 3.6 GB

Posted by: Alice1337x    Comments: Read Comments

Info Hash: E8DFCEEC3F85D424F287003797F1E81DB8EFCF00



Now You Can Download Torrents From Kat.cr, Kickasstorrent Very Easily



Torrent Description



The Skulls - I teschi (2000)



Titolo originale: The Skulls
Nazionalità: Stati Uniti, Canada
Anno: 2000
Genere: thriller, drammatico
Regia: Rob Cohen

Cast:

Joshua Jackson: Lucas "Luke" McNamara
Paul Walker: Caleb Mandrake
Hill Harper: Will Beckford
Leslie Bibb: Chloe Whitfield
Craig T. Nelson: Litten Mandrake
Christopher McDonald: Martin Lombard
William Petersen: Ames Levritt
Jesse Nilsson: Kent Hodgins
Nigel Bennett: Rupert Whitney

Luke McNamara è uno studente modello e campione di canottaggio, il cui sogno è quello di entrare a far parte della società segreta de "I Teschi". Nonostante gli avvertimenti del suo amico Will Beckford, che sta conducendo una ricerca sulla setta per un suo articolo di giornale, Luke accetta l'invito di alcuni adepti insieme al futuro collega Caleb a entrare nella setta segreta e inizialmente assapora i vantaggi di essere un "teschio".

Tuttavia comincia anche a trascurare i vecchi amici e, quando uno di essi (Will) viene trovato impiccato nel corso della sua indagine, scopre di essere finito in qualcosa più grande di lui e da cui non sarà facile uscire.






General
Unique ID : 202140653643739030433581935281172271487 (0x9812DFB03EF174F3B922ABAC066E517F)
Complete name : D:\The Skulls - I teschi (??????) (2000).mkv
Format : Matroska
Format version : Version 2
File size : 3.62 GiB
Duration : 1 h 46 min
Overall bit rate : 4 859 kb/s
Movie name : The Skulls - I teschi (??????) (2000)
Encoded date : UTC 2016-11-24 12:37:28
Writing application : mkvmerge v5.4.0 ('Piper') built on Mar 10 2012 13:34:39
Writing library : libebml v1.2.3 + libmatroska v1.3.0

Video
ID : 1
Format : AVC
Format/Info : Advanced Video Codec
Format profile : [email protected]
Format settings, CABAC : No
Format settings, ReFrames : 2 frames
Muxing mode : Header stripping
Codec ID : V_MPEG4/ISO/AVC
Duration : 1 h 46 min
Bit rate : 3 994 kb/s
Width : 1 280 pixels
Height : 692 pixels
Display aspect ratio : 1.85:1
Frame rate mode : Constant
Frame rate : 23.976 FPS
Color space : YUV
Chroma subsampling : 4:2:0
Bit depth : 8 bits
Scan type : Progressive
Bits/(Pixel*Frame) : 0.188
Stream size : 2.97 GiB (82%)
Title : The Skulls - I teschi / ?????? (2000)
Language : English
Default : Yes
Forced : No
Color range : Limited
Color primaries : BT.709
Transfer characteristics : BT.709
Matrix coefficients : BT.709

Audio #1
ID : 2
Format : AC-3
Format/Info : Audio Coding 3
Mode extension : CM (complete main)
Format settings, Endianness : Big
Muxing mode : Header stripping
Codec ID : A_AC3
Duration : 1 h 46 min
Bit rate mode : Constant
Bit rate : 192 kb/s
Channel(s) : 6 channels
Channel positions : Front: L C R, Side: L R, LFE
Sampling rate : 48.0 kHz
Frame rate : 31.250 FPS (1536 spf)
Bit depth : 16 bits
Compression mode : Lossy
Stream size : 146 MiB (4%)
Title : Italian AC3 5.1
Language : Italian
Default : Yes
Forced : No

Audio #2
ID : 3
Format : AC-3
Format/Info : Audio Coding 3
Mode extension : CM (complete main)
Format settings, Endianness : Big
Muxing mode : Header stripping
Codec ID : A_AC3
Duration : 1 h 46 min
Bit rate mode : Constant
Bit rate : 192 kb/s
Channel(s) : 2 channels
Channel positions : Front: L R
Sampling rate : 48.0 kHz
Frame rate : 31.250 FPS (1536 spf)
Bit depth : 16 bits
Compression mode : Lossy
Stream size : 146 MiB (4%)
Title : DUB (Russian) ????????-?????? (AC3)
Language : Russian
Default : No
Forced : No

Audio #3
ID : 4
Format : AC-3
Format/Info : Audio Coding 3
Mode extension : CM (complete main)
Format settings, Endianness : Big
Muxing mode : Header stripping
Codec ID : A_AC3
Duration : 1 h 46 min
Bit rate mode : Constant
Bit rate : 384 kb/s
Channel(s) : 6 channels
Channel positions : Front: L C R, Side: L R, LFE
Sampling rate : 48.0 kHz
Frame rate : 31.250 FPS (1536 spf)
Bit depth : 16 bits
Compression mode : Lossy
Stream size : 293 MiB (8%)
Title : Original (English) (AC3 5.1)
Language : English
Default : No
Forced : No

Text
ID : 5
Format : UTF-8
Codec ID : S_TEXT/UTF8
Codec ID/Info : UTF-8 Plain Text
Title : Sub Eng
Language : English
Default : No
Forced : No

Menu
00:00:00.000 : en:Luke's Life (Main Title)
00:12:48.000 : en:Tapped by the Skulls
00:16:59.000 : en:A Snake Without Scales
00:21:21.000 : en:No Middle Ground
00:25:58.000 : en:Above Any Other
00:32:44.000 : en:To Be a Skull
00:41:26.000 : en:Suicide
00:49:16.000 : en:Liar's Hell
00:52:50.000 : en:Mandrake's Gambit
00:58:46.000 : en:Revenge of the Townies
01:06:41.000 : en:Skullduggery
01:11:26.000 : en:Luke's Revenge
01:14:32.000 : en:Surveillance
01:17:58.000 : en:Thorazine Hell
01:25:57.000 : en:Die by the Rules
01:31:50.000 : en:The Duel
01:40:08.000 : en:Redemption
01:41:52.000 : en:End Titles





Recently Added Torrents in Movies

Trackers List

tracker name
udp://tracker.opentrackr.org:1337/announce
udp://tracker.leechers-paradise.org:6969/announce
udp://tracker.pirateparty.gr:6969/announce
udp://tracker.coppersurfer.tk:6969/announce
udp://tracker.mg64.net:2710/announce
udp://tracker.zer0day.to:1337/announce

Sharing Widget


Download torrent
3.6 GB
Seeders: 2
Leechers: n/a
The Skulls - I teschi (2000), [Mux 720p - H264 - Ita Eng Rus Ac3 - Sub Eng] WEB-DLMux thriller, drammatico