Un Show Mas: La Pelicula
free live football
Loading...
Loading...
Loading...
Loading...

Un amore sotto l'albero - Noel (2004), [XviD - Ita Eng Mp3] DVDrip - drammatico, sentimentale

Seeders: 1
Leechers: n/a
Completed: n/a

Age: 2 months    Visits: 43    Category: Movies    Size: 989.3 MB

Posted by: Alice1337x    Comments: Read Comments

Info Hash: 90B0E5ACC0D10B6B4B8A4285C0F5985DAF23CEEA



Now You Can Download Torrents From Kat.cr, Kickasstorrent Very Easily



Torrent Description



Un amore sotto l'albero - Noel (2004)



Titolo originale: Noel
Nazionalità: Stati Uniti
Anno: 2004
Genere: drammatico, sentimentale
Regia: Chazz Palminteri

Cast:

Susan Sarandon: Rose Harrison
Penélope Cruz: Nina Vazquez
Paul Walker: Mike
Alan Arkin: Artie Venzuela
Marcus Thomas: Jules
Chazz Palminteri: Arizona
Robin Williams: Charlie Boyd / Dio
Erika Rosenbaum: Merry

La storia del film ruota intorno a cinque sconosciuti collegati tra loro da una serie di eventi che accadono alla vigilia di Natale. Rose (Susan Sarandon) è un'editrice divorziata che si prende cura della madre affetta dalla malattia di Alzheimer. Nina (Penélope Cruz) e Mike (Paul Walker) sono una giovane coppia in procinto di rompere per via della gelosia di lui. Artie (Alan Arkin) è un cameriere anziano, che ripensa ad Angelina, la sua defunta moglie ad ogni Natale. Infine Jules (Marcus Thomas) è un ragazzo che deliberatamente si ferisce le mani per poter passare le feste al pronto soccorso, l'unico posto in grado di riportargli momenti felici della propria infanzia.






General
Complete name : D:\Un.Amore.Sotto.L.Albero.(Noel.2004).ITA.ENG.DVDrip.XviD.avi
Format : AVI
Format/Info : Audio Video Interleave
File size : 989 MiB
Duration : 1 h 36 min
Overall bit rate mode : Variable
Overall bit rate : 1 431 kb/s
Writing application : VirtualDubMod 1.5.10.2 (build 2542/release)
Writing library : VirtualDubMod build 2542/release

Video
ID : 0
Format : MPEG-4 Visual
Format profile : Advanced [email protected]
Format settings, BVOP : 1
Format settings, QPel : No
Format settings, GMC : No warppoints
Format settings, Matrix : Default (MPEG)
Codec ID : XVID
Codec ID/Hint : XviD
Duration : 1 h 36 min
Bit rate : 1 200 kb/s
Width : 720 pixels
Height : 400 pixels
Display aspect ratio : 16:9
Frame rate : 23.976 (24000/1001) FPS
Color space : YUV
Chroma subsampling : 4:2:0
Bit depth : 8 bits
Scan type : Progressive
Compression mode : Lossy
Bits/(Pixel*Frame) : 0.174
Stream size : 829 MiB (84%)
Writing library : XviD 67

Audio #1
ID : 1
Format : MPEG Audio
Format version : Version 1
Format profile : Layer 3
Codec ID : 55
Codec ID/Hint : MP3
Duration : 1 h 36 min
Bit rate mode : Variable
Bit rate : 105 kb/s
Nominal bit rate : 112 kb/s
Channel(s) : 2 channels
Sampling rate : 48.0 kHz
Compression mode : Lossy
Stream size : 72.6 MiB (7%)
Alignment : Aligned on interleaves
Interleave, duration : 24 ms (0.58 video frame)
Interleave, preload duration : 496 ms
Title : Italian
Writing library : LAME3.99r
Encoding settings : -m s -V 4 -q 3 -lowpass 15.6 --abr 112

Audio #2
ID : 2
Format : MPEG Audio
Format version : Version 1
Format profile : Layer 3
Codec ID : 55
Codec ID/Hint : MP3
Duration : 1 h 36 min
Bit rate mode : Variable
Bit rate : 106 kb/s
Nominal bit rate : 112 kb/s
Channel(s) : 2 channels
Sampling rate : 48.0 kHz
Compression mode : Lossy
Stream size : 73.0 MiB (7%)
Alignment : Aligned on interleaves
Interleave, duration : 24 ms (0.58 video frame)
Interleave, preload duration : 174 ms
Title : English
Writing library : LAME3.99r
Encoding settings : -m s -V 4 -q 3 -lowpass 15.6 --abr 112









Recently Added Torrents in Movies

Trackers List

tracker name
udp://tracker.opentrackr.org:1337/announce
udp://tracker.leechers-paradise.org:6969/announce
udp://tracker.pirateparty.gr:6969/announce
udp://tracker.coppersurfer.tk:6969/announce
udp://tracker.mg64.net:2710/announce
udp://tracker.zer0day.to:1337/announce

Sharing Widget


Download torrent
989.3 MB
Seeders: 1
Leechers: n/a
Un amore sotto l'albero - Noel (2004), [XviD - Ita Eng Mp3] DVDrip - drammatico, sentimentale